Sunday, August 19, 2012

TRON Legacy (2010) DVDRip XviD-MAXSPEED www.torentz.3xforum.ro.avi

General
Complete name                            : C:\M0v1ez\TRON Legacy (2010) DVDRip XviD-MAXSPEED\TRON Legacy (2010) DVDRip XviD-MAXSPEED www.torentz.3xforum.ro.avi
Format                                   : AVI
Format/Info                              : Audio Video Interleave
Format profile                           : OpenDML
Format settings                          : rec
File size                                : 1.48 GiB
Duration                                 : 2h 5mn
Overall bit rate                         : 1 695 Kbps
Writing application                      : AVI-Mux GUI 1.17.8.3, Feb 16 201019:42:50

Video
ID                                       : 0
Format                                   : MPEG-4 Visual
Format profile                           : Advanced Simple@L5
Format settings, BVOP                    : 2
Format settings, QPel                    : No
Format settings, GMC                     : No warppoints
Format settings, Matrix                  : Custom
Muxing mode                              : Packed bitstream
Codec ID                                 : XVID
Codec ID/Hint                            : XviD
Duration                                 : 2h 5mn
Bit rate                                 : 1 499 Kbps
Width                                    : 720 pixels
Height                                   : 400 pixels
Display aspect ratio                     : 16:9
Frame rate                               : 23.976 fps
Color space                              : YUV
Chroma subsampling                       : 4:2:0
Bit depth                                : 8 bits
Scan type                                : Progressive
Compression mode                         : Lossy
Bits/(Pixel*Frame)                       : 0.217
Stream size                              : 1.31 GiB (88%)
Writing library                          : XviD 62

Audio
ID                                       : 1
Format                                   : MPEG Audio
Format version                           : Version 1
Format profile                           : Layer 3
Mode                                     : Joint stereo
Mode extension                           : MS Stereo
Codec ID                                 : 55
Codec ID/Hint                            : MP3
Duration                                 : 2h 5mn
Bit rate mode                            : Constant
Bit rate                                 : 192 Kbps
Channel(s)                               : 2 channels
Sampling rate                            : 48.0 KHz
Compression mode                         : Lossy
Stream size                              : 172 MiB (11%)
Alignment                                : Aligned on interleaves
Interleave, duration                     : 534 ms (12.80 video frames)
Interleave, preload duration             : 216 ms
Title                                    : tron maxspeed
Writing library                          : LAME3.98.2

0 comments: