Thursday, July 25, 2013

Despicable Me 2 2013 HDCAM READNFO x264 AAC-BadMeetsEvil

General

Complete name : Despicable Me 2 2013 HDCAM READNFO x264 AAC-BadMeetsEvil[rarbg]\Despicable Me 2 2013 HDCAM READNFO x264 AAC-BadMeetsEvil.mp4
Format : MPEG-4
Format profile : Base Media
Codec ID : isom
File size : 735 MiB
Duration : 1h 30mn
Overall bit rate mode : Variable
Overall bit rate : 1 141 Kbps
Encoded date : UTC 2013-07-06 15:38:20
Tagged date : UTC 2013-07-06 15:38:20

Video

ID : 1
Format : AVC
Format/Info : Advanced Video Codec
Format profile : High@L4.1
Format settings, CABAC : Yes
Format settings, ReFrames : 3 frames
Codec ID : avc1
Codec ID/Info : Advanced Video Coding
Duration : 1h 30mn
Bit rate mode : Variable
Bit rate : 1 047 Kbps
Maximum bit rate : 40.0 Mbps
Width : 640 pixels
Height : 342 pixels
Display aspect ratio : 1.85:1
Frame rate mode : Constant
Frame rate : 23.976 fps
Color space : YUV
Chroma subsampling : 4:2:0
Bit depth : 8 bits
Scan type : Progressive
Bits/(Pixel*Frame) : 0.200
Stream size : 674 MiB (92%)
Title : 264#trackID=1:fps=23.976@GPAC0.5.1-DEV-rev4283
Writing library : x264 core 133 r2334 a3ac64b
Encoding settings : cabac=1 / ref=4 / deblock=1:-1:-1 / analyse=0x3:0x113 / me=umh / subme=9 / psy=1 / psy_rd=1.00:0.15 / mixed_ref=1 / me_range=18 / chroma_me=1 / trellis=2 / 8x8dct=1 / cqm=0 / deadzone=21,11 / fast_pskip=0 / chroma_qp_offset=-3 / threads=9 / lookahead_threads=1 / sliced_threads=0 / slices=4 / nr=0 / decimate=1 / interlaced=0 / bluray_compat=0 / constrained_intra=0 / bframes=3 / b_pyramid=1 / b_adapt=2 / b_bias=0 / direct=1 / weightb=1 / open_gop=0 / weightp=0 / keyint=23 / keyint_min=1 / scenecut=40 / intra_refresh=0 / rc_lookahead=23 / rc=2pass / mbtree=1 / bitrate=1047 / ratetol=1.0 / qcomp=0.60 / qpmin=10 / qpmax=51 / qpstep=4 / cplxblur=20.0 / qblur=0.5 / vbv_maxrate=40000 / vbv_bufsize=30000 / nal_hrd=vbr / ip_ratio=1.40 / aq=1:1.00
Encoded date : UTC 2013-07-06 15:38:20
Tagged date : UTC 2013-07-06 15:38:45
Color primaries : BT.709
Transfer characteristics : BT.709
Matrix coefficients : BT.709

Audio

ID : 2
Format : AAC
Format/Info : Advanced Audio Codec
Format profile : LC
Codec ID : 40
Duration : 1h 30mn
Bit rate mode : Variable
Bit rate : 90.7 Kbps
Maximum bit rate : 111 Kbps
Channel(s) : 2 channels
Channel positions : Front: L R
Sampling rate : 44.1 KHz
Compression mode : Lossy
Stream size : 58.4 MiB (8%)
Language : English
Encoded date : UTC 2013-07-06 15:30:54
Tagged date : UTC 2013-07-06 15:38:45


0 comments: