Thursday, July 25, 2013

Pacific Rim 2013 CAM XviD-THC


General

Complete name : [ www.UsaBit.com ] - Pacific Rim 2013 CAM XviD-THC\Pacific Rim 2013 CAM XviD-THC.avi
Format : AVI
Format/Info : Audio Video Interleave
File size : 1.24 GiB
Duration : 2h 2mn
Overall bit rate : 1 449 Kbps
Writing library : VirtualDub build 35390/release

Video

ID : 0
Format : MPEG-4 Visual
Format profile : Advanced Simple@L5
Format settings, BVOP : 2
Format settings, QPel : No
Format settings, GMC : No warppoints
Format settings, Matrix : Default (H.263)
Muxing mode : Packed bitstream
Codec ID : XVID
Codec ID/Hint : XviD
Duration : 2h 2mn
Bit rate : 1 310 Kbps
Width : 720 pixels
Height : 384 pixels
Display aspect ratio : 1.85:1
Frame rate : 29.333 fps
Color space : YUV
Chroma subsampling : 4:2:0
Bit depth : 8 bits
Scan type : Progressive
Compression mode : Lossy
Bits/(Pixel*Frame) : 0.161
Stream size : 1.12 GiB (90%)
Writing library : XviD 1.2.1 (UTC 2008-12-04)

Audio

ID : 1
Format : MPEG Audio
Format version : Version 1
Format profile : Layer 3
Mode : Joint stereo
Mode extension : MS Stereo
Codec ID : 55
Codec ID/Hint : MP3
Duration : 2h 2mn
Bit rate mode : Constant
Bit rate : 128 Kbps
Channel(s) : 2 channels
Sampling rate : 48.0 KHz
Compression mode : Lossy
Stream size : 112 MiB (9%)
Alignment : Split accross interleaves
Interleave, duration : 34 ms (1.00 video frame)
Interleave, preload duration : 500 ms
Writing library : LAME

0 comments: