Thursday, July 25, 2013

Raanjhanaa - DVDScr - XviD - 1xCD [DDR]















General

Complete name : Raanjhanaa - DVDScr - XviD - 1xCD [DDR]\1cd-raanjhanaa-dvdscr-xvid-ddr.avi
Format : AVI
Format/Info : Audio Video Interleave
File size : 696 MiB
Duration : 2h 14mn
Overall bit rate : 725 Kbps
Movie name : Raanjhanaa (2013) - DVDScr - XviD - 1xCD [DDR]
Writing application : VirtualDubMod 1.5.10.2 (build 2540/release)
Writing library : VirtualDubMod build 2540/release

Video

ID : 0
Format : MPEG-4 Visual
Format profile : Advanced Simple@L5
Format settings, BVOP : 3
Format settings, QPel : No
Format settings, GMC : No warppoints
Format settings, Matrix : Default (H.263)
Codec ID : XVID
Codec ID/Hint : XviD
Duration : 2h 14mn
Bit rate : 635 Kbps
Width : 640 pixels
Height : 272 pixels
Display aspect ratio : 2.35:1
Frame rate : 25.000 fps
Color space : YUV
Chroma subsampling : 4:2:0
Bit depth : 8 bits
Scan type : Progressive
Compression mode : Lossy
Bits/(Pixel*Frame) : 0.146
Stream size : 609 MiB (88%)
Writing library : XviD 1.2.1 (UTC 2008-12-04)

Audio

ID : 1
Format : MPEG Audio
Format version : Version 1
Format profile : Layer 3
Mode : Joint stereo
Mode extension : MS Stereo
Codec ID : 55
Codec ID/Hint : MP3
Duration : 2h 14mn
Bit rate mode : Constant
Bit rate : 80.0 Kbps
Channel(s) : 2 channels
Sampling rate : 32.0 KHz
Compression mode : Lossy
Stream size : 76.8 MiB (11%)
Alignment : Aligned on interleaves
Interleave, duration : 40 ms (1.00 video frame)
Interleave, preload duration : 504 ms
Writing library : LAME3.99r
Encoding settings : -m j -V 4 -q 2 -lowpass 13.5 -b 80

0 comments: