Thursday, July 25, 2013

Ramaiya Vastavaiya - DVDScr - XviD - 1CDRip - [DDR] (1/2)








General

Complete name : Ramaiya Vastavaiya - DVDScr - XviD - 1CDRip - [DDR]\Ramaiya Vastavaiya - DVDScr - XviD - 1CDRip - [DDR].avi
Format : AVI
Format/Info : Audio Video Interleave
File size : 695 MiB
Duration : 2h 23mn
Overall bit rate : 675 Kbps
Writing application : VirtualDubMod 1.5.10.3 | www.virtualdub-fr.org || (build 2550/release)
Writing library : VirtualDubMod build 2550/release

Video

ID : 0
Format : MPEG-4 Visual
Format profile : Advanced Simple@L5
Format settings, BVOP : 1
Format settings, QPel : No
Format settings, GMC : No warppoints
Format settings, Matrix : Custom
Codec ID : XVID
Codec ID/Hint : XviD
Duration : 2h 23mn
Bit rate : 586 Kbps
Width : 608 pixels
Height : 288 pixels
Display aspect ratio : 2.111
Frame rate : 23.976 fps
Color space : YUV
Chroma subsampling : 4:2:0
Bit depth : 8 bits
Scan type : Progressive
Compression mode : Lossy
Bits/(Pixel*Frame) : 0.140
Stream size : 603 MiB (87%)
Writing library : XviD 1.2.1 (UTC 2008-12-04)

Audio

ID : 1
Format : MPEG Audio
Format version : Version 2
Format profile : Layer 3
Mode : Joint stereo
Mode extension : Intensity Stereo + MS Stereo
Codec ID : 55
Codec ID/Hint : MP3
Duration : 2h 23mn
Bit rate mode : Constant
Bit rate : 80.0 Kbps
Channel(s) : 2 channels
Sampling rate : 24.0 KHz
Compression mode : Lossy
Stream size : 82.4 MiB (12%)
Alignment : Aligned on interleaves
Interleave, duration : 42 ms (1.00 video frame)
Interleave, preload duration : 504 ms

0 comments: