Thursday, July 25, 2013

Turbo CAMrip HaNdSoLoW

General

Complete name : Turbo CAMrip HaNdSoLoW\Turbo CAMrip HaNdSoLoW.avi
Format : AVI
Format/Info : Audio Video Interleave
File size : 866 MiB
Duration : 1h 26mn
Overall bit rate : 1 402 Kbps

Video

ID : 0
Format : AVC
Format/Info : Advanced Video Codec
Format profile : Main@L5.1
Format settings, CABAC : Yes
Format settings, ReFrames : 1 frame
Codec ID : H264
Duration : 1h 26mn
Bit rate : 1 200 Kbps
Width : 640 pixels
Height : 480 pixels
Display aspect ratio : 4:3
Frame rate : 25.000 fps
Color space : YUV
Chroma subsampling : 4:2:0
Bit depth : 8 bits
Scan type : Progressive
Bits/(Pixel*Frame) : 0.156
Stream size : 741 MiB (86%)

Audio

ID : 1
Format : MPEG Audio
Format version : Version 1
Format profile : Layer 3
Codec ID : 55
Codec ID/Hint : MP3
Duration : 1h 26mn
Bit rate mode : Constant
Bit rate : 192 Kbps
Channel(s) : 2 channels
Sampling rate : 44.1 KHz
Compression mode : Lossy
Stream size : 119 MiB (14%)
Alignment : Split accross interleaves
Interleave, duration : 40 ms (1.00 video frame)
Interleave, preload duration : 373 ms
Writing library : LAMELAME_MAJOR_VERSI

0 comments: